9 berichten aan het bekijken - 1 tot 9 (van in totaal 9)
  • Q:
    Bijdrager
    Multistrada

    Na import canon avchd beeldmateriaal in iMovie getril in beelden

    Hallo,
    eerst op zoek geweest maar niet gevonden.
    Na het importeren van beelden uit een Canon legria hfs21 in Imovie 11 en het vervolgens bekijken in gebeurtenis of project heb ik allemaal trillers in het beeld. rechte lijnen zien er zigzag uit. Is niet constant zo, maar met grote regelmaat.
    Op scherm camera zelf beeld scherp en bij afspelen mts file via vlc de beelden ook strak.

    Goed filmpie maken via iMovie op deze manier niet mogelijk.

    Bekend of gebruik ik een verkeerd systeem om vanuit camera naar filmpje te willen.

    Jan

    Bijdrager
    Pieterr

    (Klinkt als interlacing strepen.)

    Als je het eindresultaat exporteert via QuickTime (in iMovie), ziet het er dan nog slecht uit?

    Wat je ziet in iMovie zelf tijdens het bewerken is niet exact wat je als eindresultaat te zien krijgt.

    Bijdrager
    r.heijma

    Ik heb een HF100 maar herken me er niet in. Wel is het zo dat het beeldmateriaal van de HF100 bij het importeren naar een ander videoformaat wordt omgezet. Anders kan de Mac het niet behappen en krijg je van die strepen.

    Hoe heb je het geïmporteerd? En wat voor een Mac heb je?

    Bijdrager
    Multistrada

    Ik gebruik de Imac 27 inch 3.0.6.Ghz dual 2 core.

    Ik importeer via imovie 11 rechtstreeks van de camera naar een nieuwe gebeurtenis. Maak dan een project met de standaard instellingen breedbeeld 16:9 25 bps pal.

    Vervolgens exporteren met de optie quicktime naar mov bestand. Dat laatste omdat derden er met een windows pc ook naar moeten kijken.

    Tot vind ik het verschil met het originele materiaal op de camera en het eindresultaat te veel in kwaliteit achteruit gegaan met de genoemde strepen.
    Bekijk ik de originele mts files met bv vlc dan is dat gewoon veel scherper.

    Nu ben ik ook geen Jan de B en zit er af en toe wel veel beweging in de beelden.

    Ik hoor graag nog wat tips om mijn kwaliteit te verbeteren.

    Alvast bedankt voor de geplaatste reacties.

    Bijdrager
    Pieterr

    Canon LEGRIA HF S21 specs.

    Er zijn al flink wat draadjes te vinden op dit en andere fora mbt het vinden van de juiste workflow met iMovie.

    Heb je interlaced of progressive (25p) opnames gemaakt? Waarschijnlijk interlaced, omdat het probleem wat je beschrijft in die richting wijst.

    Welke opnamekwaliteit (bitrate) heb je gebruikt? (MXP, FXP, XP+, SP, LP)
    Je kunt daar achterkomen door je originele opnames te openen in MediaInfo.

    Bijdrager
    Multistrada

    General BDAV 183 MiB, 1 mn 5 s maximum overall bit rate 24.0 Bps
    1 video stream AVC

    Video
    22.4 Bps 1920*1080 16:9 at 25.000 fps. AVC ([email protected])(CABAC / 2 Ref Frames.

    Dat zijn de gegevens van Mediainfo..
    Jan

    Bijdrager
    Pieterr

    Ok. Dat is de hoogste kwaliteitmode van de Canon: MXP: 1920 x 1080, 24 Mbps.

    Als je in MediaInfo kiest voor de “Text View” kun je nog iets meer details zien.
    Staat er nog iets over het “Scan Type”: “Interlaced” dan wel “Progressive”?

    Bijdrager
    Multistrada

    General
    ID : 0 (0x0)
    Complete name : /Users/ducatifool/Documents/Video dock/MTS org uit Canon/00002.MTS
    Format : BDAV
    Format/Info : Blu-ray Video
    File size : 183 MiB
    Duration : 1mn 5s
    Overall bit rate : 23.6 Mbps
    Maximum Overall bit rate : 24.0 Mbps

    Video
    ID : 4113 (0x1011)
    Menu ID : 1 (0x1)
    Format : AVC
    Format/Info : Advanced Video Codec
    Format profile : [email protected]
    Format settings, CABAC : Yes
    Format settings, ReFrames : 2 frames
    Codec ID : 27
    Duration : 1mn 5s
    Bit rate mode : Variable
    Bit rate : 22.4 Mbps
    Maximum bit rate : 22.7 Mbps
    Width : 1 920 pixels
    Height : 1 080 pixels
    Display aspect ratio : 16:9
    Frame rate : 25.000 fps
    Color space : YUV
    Chroma subsampling : 4:2:0
    Bit depth : 8 bits
    Scan type : Interlaced
    Scan order : Top Field First
    Bits/(Pixel*Frame) : 0.431
    Stream size : 174 MiB (95%)

    Audio
    ID : 4352 (0x1100)
    Menu ID : 1 (0x1)
    Format : AC-3
    Format/Info : Audio Coding 3
    Mode extension : CM (complete main)
    Codec ID : 129
    Duration : 1mn 5s
    Bit rate mode : Constant
    Bit rate : 256 Kbps
    Channel(s) : 2 channels
    Channel positions : Front: L R
    Sampling rate : 48.0 KHz
    Bit depth : 16 bits
    Compression mode : Lossy
    Stream size : 1.99 MiB (1%)

    Bijdrager
    Pieterr
    Scan type : Interlaced

    Ok. Dus inderdaad Interlaced materiaal.

    Ik refereerde aan eerdere topics met vergelijkbare vragen. Dit is er eentje:

    Videoformaat Premiere

9 berichten aan het bekijken - 1 tot 9 (van in totaal 9)

Je moet ingelogd zijn om een reactie op dit onderwerp te kunnen geven.